regno unito wikipedia

Posted: Febbraio 5, 2021 By:

05

Feb

regno unito wikipedia

Adrian Von Ziegler 05:08 192 Кб/с 2203. Adrian Von Ziegler 03:35 320 Кб/с 3109. Скачивайте и слушайте бесплатно песню Adrian Von Ziegler - Walking With The Ancestors в высоком mp3 качестве на мобильном телефоне или компьютере. jojo5 3 July 2019 21:28 . (Btw. Descubre Walking with the Ancestors de Adrian von Ziegler en Amazon Music. Leurs silhouettes forment une ronde et dansent au son d’une musique. Listen to your favorite songs from The Celtic Collection III by Adrian von Ziegler Now. Lifeclock. Ascolta senza pubblicità oppure acquista CD e MP3 adesso su Amazon.it. Все песни, треки или музыка исполнителя Adrian von Ziegler. 歌曲名《Walking with the Ancestors》,由 Adrian Von Ziegler 演唱,收录于《The Celtic Collection III》专辑中。《Walking with the Ancestors》下载,《Walking with the Ancestors》在线试听,更多相关歌曲推荐尽在网易云音乐 Veiled (7:16) 02. RedtheWolphh. Adrian von Ziegler - Walking with the Ancestors: слушать музыку онлайн или скачать бесплатно в Mp3, на компьютер или телефон. Adrian Von Ziegler 05:34 320 Кб/с 3472. Adrian Von Ziegler 05:44 320 Кб/ с 121. Walking With The Ancestors. Adrian Von Ziegler 05:21 320 Кб/с 2860. Lost (5:14) 05. Fable Adrian von Ziegler Traditional Celtic 2019; Listen on Apple Music. la Maison des Fées, à Brennelis Adrian von Ziegler. Adrian von Ziegler - Walking With The Ancestors (Epic Celtic Intense Orchestral) by AB7 published on 2017-12-10T22:33:17Z. Walking with the Ancestors: Buy. Entdecken Sie Walking with the Ancestors von Adrian von Ziegler bei Amazon Music. Stream Adrian von Ziegler - Walking With The Ancestors (Epic Celtic Intense Orchestral) by AB7 from desktop or your mobile device. Lunara. Escúchalo en streaming y sin anuncios o compra CDs y MP3s ahora en Amazon.es. Legend. Check out Walking with the Ancestors by Adrian von Ziegler on Amazon Music. Adrian von Ziegler (nascut el 25 de desembre de 1989) és un compositor originari de Zúric, Suïssa. I gave credit to all other composers who are included in this mod at the end of the description. Слушать бесплатно или скачать целиком, либо же каждый трек по отдельности. Evocation. Werbefrei streamen oder als CD und MP3 kaufen bei Amazon.de. Love this track Set track as current obsession Get track Loading; 5:44 ... Adrian von Ziegler (born on the 25th December 1989) is a musician from Switzerland who composes various styles of mostly gothic and celtic music. Most songs (about 75%) are composed by Adrian von Ziegler. Walking With The Ancestors youtu.be/aa25ZdYCNLA ...ou la maison des Nains car "Boudig" est traduit du breton par "petit être", le diminutif "Boud" serait " fée ou nymphe". Walking With The Ancestors - Adrian Von Ziegler – popular memes on the site ifunny.co Лента с персональными рекомендациями и музыкальными новинками, радио, подборки на любой вкус, удобное управление своей коллекцией. Twilight Melody (4:09) 04. SAYAT. Users who like Adrian von Ziegler - Walking With The Ancestors (Epic Celtic Intense Orchestral) Scopri i testi, gli aggiornamenti e gli approfondimenti sui tuoi artisti preferiti. SoundCloud Adrian von Ziegler - Walking With The Ancestors (Epic Celtic Intense Orchestral) by AB7 published on 2017-12-10T22:33:17Z. viollessō. Adrian von Ziegler - The Lonely Road (5:01) IsraCloud Links: 2019-The-Celtic-Collection-III-16-44,1-FLAC.RAR - 389.6 MB 2019-The-Celtic-Collection-III-16-44,1-MP3.RAR - 184.5 MB. I bought Adrian von Ziegler's Complete Discography just for this mod. Your E-Mail. Adrian Von Ziegler 02:46 320 Кб/с 7247. Leggi il testo di Walking with the Ancestors di Adrian von Ziegler dall'album Fable su Rockol.it. Loading; More. Prophecy. "Boudiged" en est tout simplement le pluriel. Walking with the Ancestors (5:44) 19. Stream ad-free or purchase CD's and MP3s now on Amazon.co.uk. Walking with the Ancestors — Adrian von Ziegler. Rebirth (3:58) 06. Открывайте новую музыку каждый день. g+ f t. اغلاق. Your Name. Tous les albums et singles de Adrian Von Ziegler : écoute et téléchargement de tous les titres. Preview. Adrian Von Ziegler 03:47 320 Кб/с 2525. Va començar a guanyar popularitat gràcies a la compartició de les seves peces de música fantàstica i celta al seu canal de YouTube.El nombre de subscriptors al seu canal de YouTube supera les 800.000 persones, convertint-lo en el més gran dedicat a aquests estils. Loneliness (4:08) 07. Composer: Adrian von Ziegler Genre: Score Date: 2019 Audio codec: FLAC Quality: lossless Playtime: 01:13:51. Listen on Apple Music. بواسطة ᘓᓆɹɹ̈̇ɹc ♬ ♥️ .. في 2019/2/16 (منذ سنتين) تنزيل (5.3 MB) رابط قصير. Similar artists include ebunny, Brunuhville… read more. DR7 0.00 дБ -9.93 дБ 5:44 07-Walking with the Ancestors DR11 0.00 дБ -14.21 дБ 3:13 08-Tale of Silthârea DR11 0.00 дБ -15.30 дБ 4:51 09-Fable Moonchild (4:02) 03. Scopri Walking with the Ancestors di Adrian von Ziegler su Amazon Music. Download our mobile app now. Users who reposted this track amir. Adrian von Ziegler - Walking with the Ancestors Скачать бесплатно Adrian von Ziegler - Walking with the Ancestors в mp3 и слушать онлайн в хорошем качестве Nov 25, 2019 - VK is the largest European social network with more than 100 million active users. Adrian von Ziegler - Walking with the Ancestors (5:44) 19. Our goal is to keep old friends, ex-classmates, neighbors and colleagues in touch. Prison of the Soul (4:21) 08. Sayat Malick. Thank you!!!! Walking With The Ancestors. " الـمشـيّ مـع الأسـلاف " - أدريـان فـون زيـغلـر | - Walking Whith The Ancestors - Adrian von Ziegler. دانلود آهنگ جدید آدریان فون زیگلر بنام Walking with the Ancestors با کیفت 320 شعرآهنگ - Download New Music Adrian von Ziegler Walking with the Ancestors Nur-Sultan. amir sadeghie. 0; Add comment. Nocturnus. This mod adds 71 amazing, instrumental soundtracks to EUIV composed by Adrian von Ziegler and other composers. Walking with the Ancestors 5:44: 19 The Lonely Road 5:01: 19 Songs, 1 Hour 15 Minutes Released: Jun 6, 2019 ℗ 2019 Adrian Von Ziegler; Also Available in iTunes More By Adrian von Ziegler See All. Stream ad-free with Amazon Music Unlimited on mobile, desktop, and tablet. Walking With The Ancestors youtu.be/aa25ZdYCNLA On dit que ce coin de bois est surnaturel… A certaines périodes de l’année, des fées « les demoiselles blanches », se réunissent autour du dolmen pour célébrer des rites anciens. BOW BEFORE ME MORTALS Achievement / Ironman compatible This mod contains amazing and immersive tracks made by the well known Adrian von Ziegler!! For this time of the year, when festivities, peace, light, and fairy tales are out, we feature mix of Celtic music with the stories of fairies, Featuring Enya, Cletic Woman, Adrian Von Ziegler, Adri Flaherty…. The Lonely Road (5:01) 2020 - Veiled [1:16:01] Tracklist: 01. Adrian von Ziegler. 0 ; Re-Up this Album.

Frasi Sulla Pizza Margherita, Smalti Sally Hansen Recensioni, App Virgilio Mail Non Funziona, Anna Foglietta Distretto Di Polizia, Poi Analisi Grammaticale,